Пьяная история / Drunk History [05x01-09 из 14] (2018) WEBRip | Jaskier | Lynn Marocola | Watch What Happens Live 2018 06 25 Bebe Rexha and Bryan Adams WEB x264-TBS [eztv]

+ xdwzsp.info »  :::: Bollywood Zone » Indian PC Videos
|- Drishyam (2015) Bollywood Movie Music Album HQ 1080p REM-Bluray x264 DTS-HDMA MSubs By ~MaLiK ZEE~

10% Off with Visa

Drishyam (2015) Bollywood Movie Music Album HQ 1080p REM-Bluray x264 DTS-HDMA MSubs By ~MaLiK ZEE~

0 Members and 1 Guest are viewing this topic.

July 10, 2018, 07:18:27 PM
Drishyam (2015) Bollywood Movie Music Album HQ 1080p REM-Bluray x264 DTS-HDMA MSubs By ~MaLiK ZEE~


Quote

General
Format                      : Matroska
Format version              : Version 4 / Version 2
Overall bit rate            : 10.7 Mb/s
Writing application         : Lavf57.71.100
Writing library             : Lavf57.71.100
ErrorDetectionType          : Per level 1

Video
ID                          : 1
Format                      : AVC
Format/Info                 : Advanced Video Codec
Format profile              : [email protected]
Format settings             : CABAC / 5 Ref Frames
Format settings, CABAC      : Yes
Format settings, ReFrames   : 5 frames
Codec ID                    : V_MPEG4/ISO/AVC
Bit rate                    : 9 014 kb/s
Width                       : 1 920 pixels
Height                      : 816 pixels
Display aspect ratio        : 2.35:1
Frame rate mode             : Constant
Frame rate                  : 24.000 FPS
Color space                 : YUV
Chroma subsampling          : 4:2:0
Bit depth                   : 8 bits
Scan type                   : Progressive
Bits/(Pixel*Frame)          : 0.240
Stream size                 : 241 MiB (84%)
Default                     : Yes
Forced                      : No
Color range                 : Limited
Color primaries             : BT.709
Transfer characteristics    : BT.709
Matrix coefficients         : BT.709

Audio
ID                          : 2
Format                      : DTS
Format/Info                 : Digital Theater Systems
Codec ID                    : A_DTS
Bit rate mode               : Constant
Bit rate                    : 1 509 kb/s
Channel(s)                  : 6 channels
Channel positions           : Front: L C R, Side: L R, LFE
Sampling rate               : 48.0 kHz
Frame rate                  : 93.750 FPS (512 SPF)
Bit depth                   : 24 bits
Compression mode            : Lossy
Delay relative to video     : 10 ms
Stream size                 : 40.3 MiB (14%)
Language                    : Hindi
Default                     : Yes
Forced                      : No


 :ss:








 :download:

Google Drive

Quote
01-Carbon Copy

02-Dum Ghutta Hai
:download:
Zip File
Quote

【M】【A】【L】【I】【K】    【Z】【E】【E】【S】【H】【A】【N】

Share this topic on FacebookShare this topic on GoogleShare this topic on MySpaceShare this topic on TwitterShare this topic on Yahoo




 

Related Topics




Back to top