Le Meilleur des mondes | Q-R Air Gear NC OP ED DVD H264 768x576 24-30fps AC3rar | Animation

+ xdwzsp.info »  :::: Bollywood Zone » Bollywood Movies (Original Rips) » High Resolution Movies
|- Dilwale (2015) HQ 1080p REM-Bluray x264 DTS-HDMA MSubs [DDR]~MaLiK ZEE~

10% Off with Visa

Dilwale (2015) HQ 1080p REM-Bluray x264 DTS-HDMA MSubs [DDR]~MaLiK ZEE~

0 Members and 1 Guest are viewing this topic.

July 05, 2018, 07:11:34 PM
Dilwale (2015) HQ 1080p REM-Bluray x264 DTS-HDMA MSubs [DDR]~MaLiK ZEE~

 :info:
Quote
Source = BD-Remux @ HDT
Format : Matroska
File size : 13.2 GiB
Duration : 2h 34mn
Overall bit rate : 12.2 Mbps

Video
Format : AVC
Format profile :
Bit rate : 10 000 Kbps
Width : 1 920 pixels
Height : 800 pixels
Display aspect ratio : 2.40:1
Frame rate mode : Constant
Frame rate : 24.000 fps
Bit depth : 8 bits
Scan type : Progressive
Stream size : 10.8 GiB (82%)

Audio #1
Format : DTS
Format profile : MA / Core
Bit rate mode : Variable / Constant
Bit rate : 2 227 Kbps / 768 Kbps
Channel(s) : 6 channels
Channel positions : Front: L C R, Side: L R, LFE
Sampling rate : 48.0 KHz
Bit depth : 16 bits
Compression mode : Lossless / Lossy
Stream size : 2.40 GiB (18%)
Default : Yes

Language : Hindi

Chapters: YES
:ss:





 :download:
Quote


【M】【A】【L】【I】【K】    【Z】【E】【E】【S】【H】【A】【N】

Share this topic on FacebookShare this topic on GoogleShare this topic on MySpaceShare this topic on TwitterShare this topic on Yahoo



Thanks given by:


Tags:
 

Related Topics




Back to top