Ebooks(2141) | Ciencia Ficción | Match Game (2016)

+ xdwzsp.info »  :::: Bollywood Zone » Bollywood Movies (Original Rips) » High Resolution Movies
|- Dilwale (2015) HQ 1080p REM-Bluray x264 DTS-HDMA MSubs [DDR]

Weekend Pay And Play 50% Off

Dilwale (2015) HQ 1080p REM-Bluray x264 DTS-HDMA MSubs [DDR]

0 Members and 1 Guest are viewing this topic.

April 15, 2018, 04:17:56 PM
  • Team SSX
  • Elite Forces
  • ***
  • Topic Author
  • Thank You: 1295
  • Reputation: 471
  • Activity:
    100%
  • Country: np
  • Posts: 1269
  • Topics: 778
  • Join Date: Jul 2016
  • Love Forever !!
Dilwale (2015) HQ 1080p REM-Bluray x264 DTS-HDMA MSubs [DDR]



 :info:
Source = BD-Remux @ HDT
Format : Matroska
File size : 13.2 GiB
Duration : 2h 34mn
Overall bit rate : 12.2 Mbps

Video
Format : AVC
Format profile :
Bit rate : 10 000 Kbps
Width : 1 920 pixels
Height : 800 pixels
Display aspect ratio : 2.40:1
Frame rate mode : Constant
Frame rate : 24.000 fps
Bit depth : 8 bits
Scan type : Progressive
Stream size : 10.8 GiB (82%)

Audio #1
Format : DTS
Format profile : MA / Core
Bit rate mode : Variable / Constant
Bit rate : 2 227 Kbps / 768 Kbps
Channel(s) : 6 channels
Channel positions : Front: L C R, Side: L R, LFE
Sampling rate : 48.0 KHz
Bit depth : 16 bits
Compression mode : Lossless / Lossy
Stream size : 2.40 GiB (18%)
Default : Yes

Language : Hindi

Chapters: YES


 :ss:




 :download:






Share this topic on FacebookShare this topic on GoogleShare this topic on MySpaceShare this topic on TwitterShare this topic on Yahoo

« Last Edit: April 15, 2018, 04:18:14 PM by special26 »



Tags:
 

Related Topics




Back to top