Watch Movie | Had Done Meaning | David Alford

+ xdwzsp.info »  :::: Bollywood Zone » Bollywood Movies (Original Rips)
|- Lucknow Central 2017 720p Esub BluRay 2017 Hindi GOPISAHI

Gif Cards 25% Off

Lucknow Central 2017 720p Esub BluRay 2017 Hindi GOPISAHI

0 Members and 1 Guest are viewing this topic.

December 17, 2017, 08:37:14 AM
  • Addic7ed
  • Special Member
  • ****
  • Topic Author
  • Thank You: 395
  • Reputation: 90
  • Activity:
    15.8%
  • Country: in
  • Posts: 815
  • Topics: 770
  • Join Date: Oct 2013
  • ShareSpark Member

Format                         : Matroska
Format version                 : Version 4 / Version 2
File size                      : 713 MiB
Duration                       : 2 h 24 min
Overall bit rate               : 689 kb/s
Movie name                     : Lucknow Central 2017 GOPISAHI

Video
Format                         : AVC
Format/Info                    : Advanced Video Codec
Codec ID                       : V_MPEG4/ISO/AVC
Duration                       : 2 h 24 min
Bit rate                       : 600 kb/s
Width                          : 1 280 pixels
Height                         : 544 pixels
Display aspect ratio           : 2.35:1
Frame rate mode                : Constant
Frame rate                     : 24.000 FPS
Stream size                    : 621 MiB (87%)
Title                          : GOPISAHI
Writing library                : x264 core 152 r2851 ba24899

Audio
Format                         : AAC
Duration                       : 2 h 24 min
Bit rate                       : 86.7 kb/s
Channel(s)                     : 6 channels
Channel positions              : Front: L C R, Side: L R, LFE
Sampling rate                  : 44.1 kHz
Frame rate                     : 43.066 FPS (1024 SPF)
Stream size                    : 89.8 MiB (13%)
Language                       : Hindi

Text
Language                       : English




Share this topic on FacebookShare this topic on GoogleShare this topic on MySpaceShare this topic on TwitterShare this topic on Yahoo



Thanks given by:


Tags:
 

Related Topics




Back to top