[HorribleSubs] Gegege no Kitarou (2018) - 05 [1080p] | The Others (Haunted From Without - Book One) | The Hitchhiker's Guide To The Galaxy 2005 BD1080P X264 AAC EnglishMandarin CHS-ENG 52movieba 24 minutes

+ xdwzsp.info »  :::: Bollywood Zone » Bollywood Movies (Original Rips)
|- Golmaal Again 2017 720p Esub BluRay 2017 Hindi GOPISAHI

10% Off Cashback Carnival

Golmaal Again 2017 720p Esub BluRay 2017 Hindi GOPISAHI

0 Members and 1 Guest are viewing this topic.

December 16, 2017, 05:45:29 PM
  • Addic7ed
  • Special Member
  • ****
  • Topic Author
  • Thank You: 395
  • Reputation: 90
  • Activity:
    15.8%
  • Country: in
  • Posts: 815
  • Topics: 770
  • Join Date: Oct 2013
  • ShareSpark Member

Format                         : Matroska
Format version                 : Version 4 / Version 2
File size                      : 855 MiB
Duration                       : 2 h 31 min
Overall bit rate               : 791 kb/s
Movie name                     : Golmaal Again 2017 GOPISAHI

Video
Format                         : AVC
Codec ID                       : V_MPEG4/ISO/AVC
Duration                       : 2 h 31 min
Bit rate                       : 700 kb/s
Width                          : 1 280 pixels
Height                         : 536 pixels
Display aspect ratio           : 2.40:1
Frame rate mode                : Constant
Frame rate                     : 24.000 FPS
Stream size                    : 757 MiB (88%)
Title                          : GOPISAHI
Writing library                : x264 core 152 r2851 ba24899
Language                       : Hindi

Audio
Format                         : AAC
Duration                       : 2 h 31 min
Bit rate                       : 88.8 kb/s
Channel(s)                     : 6 channels
Channel positions              : Front: L C R, Side: L R, LFE
Sampling rate                  : 44.1 kHz
Frame rate                     : 43.066 FPS (1024 SPF)
Stream size                    : 96.0 MiB (11%)
Language                       : Hindi

Text
Language                       : English





Share this topic on FacebookShare this topic on GoogleShare this topic on MySpaceShare this topic on TwitterShare this topic on Yahoo




Tags:
 

Related Topics

  Subject / Started by Replies Last post
2 Replies
564 Views
Last post August 06, 2017, 06:01:05 AM
by wazza13utd
0 Replies
267 Views
Last post November 13, 2017, 08:53:15 AM
by jattsahi2
0 Replies
263 Views
Last post December 08, 2017, 12:32:35 PM
by jattsahi2
0 Replies
876 Views
Last post December 15, 2017, 08:39:44 PM
by Rάήνίјάч1234
0 Replies
314 Views
Last post December 16, 2017, 01:47:45 PM
by jattsahi2



Back to top