Professional and Technical | Cookies Policy | Parada oszustw

+ xdwzsp.info »  :::: Bollywood Zone » Indian PC Videos
|- IIFA Rocks 2017 - 20th August 2017 - 720p HDTV Rip (Lovepreet1) DUS

Subscribe and Save

IIFA Rocks 2017 - 20th August 2017 - 720p HDTV Rip (Lovepreet1) DUS

0 Members and 1 Guest are viewing this topic.

August 21, 2017, 11:00:11 AM
  • Global Moderator
  • Legend Member
  • *****
  • Topic Author
  • Thank You: 7616
  • Reputation: 1676
  • Activity:
    100%
  • Country: in
  • Posts: 4512
  • Topics: 3760
  • Join Date: Jan 2014
  • ıllıllı ѕмoĸιng ιѕ good ғor нealтн ıllıllı :)
IIFA Rocks 2017 - 20th August 2017 - 720p HDTV Rip (Lovepreet1) DUS



 :info:

Quote
General
Complete name                            : IIFA Rocks 2017 - 20th August 2017 - 720p HDTV Rip (Lovepreet1) DUS.mp4
Format                                   : MPEG-4
Format profile                           : Base Media
Codec ID                                 : isom (isom/iso2/avc1/mp41)
File size                                : 1.18 GiB
Duration                                 : 2 h 15 min
Overall bit rate mode                    : Constant
Overall bit rate                         : 1 249 kb/s
Writing application                      : Lavf57.25.101

Video
ID                                       : 1
Format                                   : AVC
Format/Info                              : Advanced Video Codec
Format profile                           : [email protected]
Format settings, CABAC                   : Yes
Format settings, RefFrames               : 4 frames
Codec ID                                 : avc1
Codec ID/Info                            : Advanced Video Coding
Duration                                 : 2 h 15 min
Bit rate mode                            : Constant
Bit rate                                 : 1 104 kb/s
Width                                    : 1 280 pixels
Height                                   : 720 pixels
Display aspect ratio                     : 16:9
Frame rate mode                          : Variable
Frame rate                               : 24.974 FPS
Minimum frame rate                       : 0.502 FPS
Maximum frame rate                       : 25.000 FPS
Original frame rate                      : 25.000 FPS
Standard                                 : Component
Color space                              : YUV
Chroma subsampling                       : 4:2:0
Bit depth                                : 8 bits
Scan type                                : Progressive
Bits/(Pixel*Frame)                       : 0.048
Stream size                              : 1.04 GiB (88%)
Color range                              : Limited
Color primaries                          : BT.709
Transfer characteristics                 : BT.709
Matrix coefficients                      : BT.709

Audio
ID                                       : 2
Format                                   : AAC
Format/Info                              : Advanced Audio Codec
Format profile                           : LC
Codec ID                                 : 40
Duration                                 : 2 h 15 min
Bit rate mode                            : Constant
Bit rate                                 : 140 kb/s
Channel(s)                               : 2 channels
Channel positions                        : Front: L R
Sampling rate                            : 48.0 kHz
Frame rate                               : 46.875 FPS (1024 SPF)
Compression mode                         : Lossy
Stream size                              : 135 MiB (11%)
Default                                  : Yes
Alternate group                          : 1

:ss:







 :download:

Quote















Don't walk as you are king, walk as you don't care who the king is....!!
Never argue with an idiot. They drag you down to their level and then beat you with experience?

Share this topic on FacebookShare this topic on GoogleShare this topic on MySpaceShare this topic on TwitterShare this topic on Yahoo

« Last Edit: August 21, 2017, 02:07:48 PM by Rάήνίјάч1234 »



Don't walk as you are king, walk as you don't care who the king is....!!

Thanks given by:


August 21, 2017, 11:23:39 AM
Reply #1
  • Semi Newbie
  • **
  • Thank You: 0
  • Reputation: 1
  • Activity:
    0.2%
  • Country: pk
  • Posts: 29
  • Topics: 2
  • Join Date: Jun 2017
  • ShareSpark Member
@ranivijay Bhai Iifa 2017 Tu July 2017 mein Tha Ye Iifa Rocks Kya Hai???

September 19, 2017, 09:11:00 PM
Reply #2
  • Senior Member
  • ***
  • Thank You: 0
  • Reputation: 1
  • Activity:
    5.2%
  • Country: pk
  • Posts: 212
  • Topics: 0
  • Join Date: Jul 2017
  • ShareSpark Member

September 20, 2017, 01:39:57 AM
Reply #3
  • Elite Forces
  • ****
  • Thank You: 219
  • Reputation: 92
  • Activity:
    17.6%
  • Country: sa
  • Posts: 1122
  • Topics: 113
  • Join Date: Jan 2017
  • ShareSpark Member

Tags:
 

Related Topics

  Subject / Started by Replies Last post
0 Replies
587 Views
Last post July 02, 2015, 12:30:15 PM
by Ńαʌєєи
0 Replies
572 Views
Last post July 02, 2015, 07:31:27 PM
by YOGESH19
0 Replies
433 Views
Last post August 20, 2015, 02:59:36 PM
by [email protected]€€Z [email protected]
0 Replies
499 Views
Last post July 16, 2017, 11:00:37 PM
by ★ iamPK ★
2 Replies
1141 Views
Last post September 19, 2017, 09:10:43 PM
by RomanEmpire



Back to top