Code Geass: Boukoku no Akito 5 – Itoshiki Monotachi e Subtitle Indonesia | Download → | Biff Elliot

xdwzsp.info

:::: Bollywood Zone => Bollywood Movies (Original Rips) => High Resolution Movies => Topic started by: 【M】【A】【L】【I】【K】 【Z】【E】【E】 on July 05, 2018, 07:11:34 PM

Title: Dilwale (2015) HQ 1080p REM-Bluray x264 DTS-HDMA MSubs [DDR]~MaLiK ZEE~
Post by: 【M】【A】【L】【I】【K】 【Z】【E】【E】 on July 05, 2018, 07:11:34 PM
Dilwale (2015) HQ 1080p REM-Bluray x264 DTS-HDMA MSubs [DDR]~MaLiK ZEE~
(http://extraimage.net/images/2016/05/07/dilwale.md.jpg)
 :info:
Quote
Source = BD-Remux @ HDT
Format : Matroska
File size : 13.2 GiB
Duration : 2h 34mn
Overall bit rate : 12.2 Mbps

Video
Format : AVC
Format profile :
Bit rate : 10 000 Kbps
Width : 1 920 pixels
Height : 800 pixels
Display aspect ratio : 2.40:1
Frame rate mode : Constant
Frame rate : 24.000 fps
Bit depth : 8 bits
Scan type : Progressive
Stream size : 10.8 GiB (82%)

Audio #1
Format : DTS
Format profile : MA / Core
Bit rate mode : Variable / Constant
Bit rate : 2 227 Kbps / 768 Kbps
Channel(s) : 6 channels
Channel positions : Front: L C R, Side: L R, LFE
Sampling rate : 48.0 KHz
Bit depth : 16 bits
Compression mode : Lossless / Lossy
Stream size : 2.40 GiB (18%)
Default : Yes

Language : Hindi

Chapters: YES
:ss:
(http://extraimage.net/images/2016/05/07/Dilwale.HQ_1080p58122.png)
(http://extraimage.net/images/2016/05/07/Dilwale.HQ_1080p169450.png)
(http://extraimage.net/images/2016/05/07/Dilwale.HQ_1080p60506.png)
(http://extraimage.net/images/2016/05/07/Dilwale.HQ_1080p201602.png)

 :download:
Quote
http://uptobox.com/iy9jq82dgg8t
http://drive.google.com/open?id=1FH67PrYen-p95ogJAp0OzPyhFT3bPCGG

【M】【A】【L】【I】【K】    【Z】【E】【E】【S】【H】【A】【N】